#TITLE:Angry White Boy Polka;
#SUBTITLE:;
#ARTIST:Weird Al;
#TITLETRANSLIT:;
#SUBTITLETRANSLIT:;
#ARTISTTRANSLIT:;
#CREDIT:;
#BANNER:AWBP.PNG;
#BACKGROUND:SWBP-bg.PNG;
#LYRICSPATH:;
#CDTITLE:;
#MUSIC:05 Angry White Boy Polka.mp3;
#OFFSET:0.100;
#SAMPLESTART:263.527;
#SAMPLELENGTH:12.000;
#SELECTABLE:YES;
#BPMS:0.000=294.440,24.000=294.460,128.000=299.920,132.000=294.580,158.000=289.940,164.000=294.440,288.000=301.100,289.000=332.720,290.000=352.340,291.000=359.520,315.000=353.280,338.000=356.320,352.000=346.940,358.000=349.880,372.000=173.200,388.000=356.859,396.000=344.799,404.000=350.819,436.000=346.840,452.000=350.799,523.000=343.319,548.000=351.359,564.000=355.779,576.000=344.600,580.000=346.559,598.000=354.820,624.000=360.700,628.000=370.620,670.000=365.980,694.000=372.060,698.000=371.620,725.000=365.980,731.000=367.180,742.000=248.361,743.000=174.721,744.000=205.721,751.000=216.581,760.500=211.261,784.000=214.901,794.500=210.281,805.000=212.321,832.000=214.961,850.000=211.461,868.000=214.901,872.000=217.721,874.000=222.161,879.000=227.001,883.000=230.421,887.000=234.041,898.000=230.421,951.000=308.420,958.000=301.060,966.000=301.580,980.000=305.020,997.000=299.780,1012.000=306.580,1074.500=310.200,1079.000=310.700,1091.000=315.941,1156.000=301.080,1162.000=295.060,1164.000=291.440,1172.000=293.860,1212.000=290.400,1252.000=298.460,1280.000=286.040,1284.000=282.580,1300.000=277.200,1342.000=298.101,1363.000=302.141,1404.000=311.361,1418.000=206.101,1419.000=105.980,1420.000=111.420;
#STOPS:476.000=0.620
,476.500=0.620
,597.000=0.940
,597.500=0.260
,742.000=0.460
,743.000=0.480
,743.500=1.060
,868.000=0.780
,881.000=0.780
,950.000=0.400
,950.500=0.280
,1011.000=0.300
,1011.500=0.300
,1408.000=0.280
,1421.000=0.460
;
#BGCHANGES:;
// cache tags:
#FIRSTBEAT:20.000;
#LASTBEAT:1426.500;
#SONGFILENAME:Songs/Music V.I.P ^_^/Angry White Boy Polka/Angry White Boy Polka.sm;
#HASMUSIC:1;
#HASBANNER:1;
#MUSICLENGTH:303.603;
// end cache tags

//---------------dance-single - ----------------
#NOTES:
     dance-single:
     :
     Hard:
     12:
     0.985,1.000,0.998,0.234,0.105,1720.000,303.000,71.000,0.000,0.000:
0000
0000
0000
0000
,
0000
0000
0000
0000
,
0000
0000
0000
0000
,
0000
0000
0000
0000
,
0000
0000
0000
0000
,
1000
0100
0010
0001
,
0100
0010
1000
0000
,
0001
0010
0100
1000
,
0001
0010
0100
0000
,
0001
0100
0010
1000
,
0100
0010
0001
0000
,
0100
0010
0001
0010
,
1000
0100
0001
0100
,
1000
1100
0001
0101
,
1000
1100
0001
0101
,
1000
1010
0001
0011
,
1000
1010
0001
0011
,
0010
1100
0010
0101
,
0010
1100
0010
0101
,
1000
0010
0100
0001
,
0010
0000
0001
0000
0100
0010
1000
0100
,
0010
0000
0010
0000
,
0010
0000
0010
0000
,
0001
0000
0001
0000
,
0001
0000
0000
0000
1000
0001
1000
0001
,
1000
0000
0100
0010
0100
0000
0001
0000
,
0100
0000
0010
0001
0100
0000
0010
0000
,
1000
0000
0010
0100
2002
3003
0100
0010
,
0001
0100
0001
0000
0100
0000
1001
0000
,
1000
0100
1000
0001
1000
0010
1000
0001
,
0100
0010
0100
1000
0100
0010
0100
0001
,
0010
0100
0010
0001
0010
1000
0010
0001
,
1000
0001
1000
0010
1000
0100
1000
0010
,
0100
0011
1000
0011
,
0100
0011
1000
0011
,
0001
1100
0010
1100
,
0001
0000
1100
0000
0010
0000
1100
0001
,
0100
0010
1000
0000
0100
0000
1100
0000
,
0001
0010
0100
0000
1000
0000
1001
0000
,
1000
0000
0100
0000
1000
0010
0100
0001
,
0010
0001
0100
0000
0010
0000
1001
0000
,
1000
0100
0010
0000
0001
0000
0101
0000
,
0001
1000
0010
0000
0100
0000
1010
0000
,
1000
0000
0001
0000
0100
0010
1000
0000
,
0100
0010
0001
0000
0101
0000
1100
0000
,
1000
0101
0000
1000
,
0100
0010
0002
0000
,
2003
3100
0000
0010
,
0001
0100
0010
1000
,
0100
0000
0101
1000
,
0001
0010
1000
0010
,
0110
0000
1100
0000
,
0011
0000
0101
0000
,
1000
1100
0001
0101
,
1000
1100
0001
0101
,
1000
1010
0001
0011
,
0002
0000
0000
0000
2000
0000
0000
3003
,
1000
0100
0000
0000
0100
0010
0000
0000
,
0010
0001
0100
0010
1000
0100
0010
0001
,
1000
0001
0000
0000
1001
0000
0000
0000
,
0010
0001
0100
0010
0001
0010
1000
0100
,
0010
0001
0000
0100
0001
0100
0000
0000
,
0100
0010
1000
0010
0100
0001
0010
0100
,
1000
0010
0000
0000
1010
0000
0000
0000
,
1000
0001
0010
0001
0100
0010
1000
0100
,
0010
0001
0000
0001
0010
0100
1000
0000
,
0100
0010
0001
1000
0010
0100
0001
0010
,
0100
1000
0000
1000
0010
0100
0001
0000
,
0010
0001
0100
0010
0001
0010
1000
0100
,
0001
0100
0000
0100
1000
0010
0100
0000
,
0100
0001
0010
0100
1000
0100
0010
0001
,
0100
0010
0000
0010
0100
0010
1000
0000
,
1100
1001
0101
0110
,
1000
0100
0010
0001
0100
0010
1000
0000
,
0001
0010
0001
0100
0010
1000
0100
0000
,
0010
0001
1000
0001
0010
0100
1000
0000
,
0010
0100
0001
0010
0100
1000
0010
0000
,
0100
0010
0001
0010
1000
0100
0010
0000
,
0001
0010
0001
0100
0010
1000
0100
0000
,
1000
0100
0000
1001
0000
0000
1100
0000
,
1001
0000
0101
0000
,
0001
0010
0001
0100
0010
1000
0100
0000
,
1000
0010
0100
0001
0010
0100
1000
0000
,
0001
0100
0010
0100
0001
0010
0100
0000
,
1000
0001
0010
0100
1000
0010
0100
0000
,
0001
0010
0001
0100
1000
0100
0001
0000
,
0100
0010
1000
0100
0010
0001
1000
0000
,
0010
1000
0000
1001
0000
0000
1100
0000
,
0101
0000
1001
0000
,
1100
0000
0101
0000
,
0011
0000
0000
0000
0000
0000
0010
0001
,
1100
1001
0101
0011
,
0110
0000
1001
0000
,
1000
0000
1000
0000
0100
0000
0100
0000
0010
0000
0010
0000
0001
0010
0100
1000
,
0010
0000
0010
0000
0100
0000
0100
0000
0001
0000
0001
0000
0010
0001
0100
0010
,
1000
0000
1000
0000
0010
0000
0010
0000
0001
0000
0001
0000
0010
1000
0100
0010
,
1001
0000
1100
0000
0101
1000
0011
0000
,
1000
1100
0001
0101
,
1000
0011
0100
0110
,
0001
1001
1000
1010
,
0100
0101
0001
0011
,
0010
1100
0010
0101
,
0001
0101
0010
1010
,
1100
0000
1001
0000
,
0001
0010
0011
0000
,
1000
0100
0010
0001
0100
0000
0010
1000
,
0100
0010
0001
0000
0010
0001
0100
0010
,
1000
1100
0001
0101
,
1000
1100
0001
0101
,
0001
0010
0100
0010
0001
0000
0100
0010
,
1000
0100
0010
0000
0001
0010
0100
1000
,
0010
0110
1000
1001
,
0001
0011
1000
1001
,
1000
0010
0100
0001
0010
0000
0100
1000
,
0100
0010
0001
0000
0010
0001
0100
0010
,
1000
1010
0100
0101
,
0001
0011
0100
1100
,
0001
0010
0001
0100
1000
0000
1000
0100
,
0001
0010
1000
0000
1000
0010
0001
0100
,
1001
0110
1000
0000
1000
0000
0100
0000
,
0010
0000
0010
0001
,
0010
0000
0100
1000
,
0100
0000
0010
0100
,
0001
0000
1000
0000
0100
0010
0001
0000
,
0100
0010
1000
0000
0010
1000
0100
0000
,
0010
0001
0010
0000
0100
1000
0001
0000
,
0100
0001
0010
0000
0100
1000
0200
0000
,
1300
0001
1000
0001
0000
0000
1000
0000
0000
0100
0000
0000
,
0010
0000
0001
0100
,
0010
0000
0001
0010
,
1000
0100
0001
0100
,
0001
0010
1100
0001
,
0101
0010
0110
1000
,
1001
0010
0101
0010
,
1010
0100
1100
0001
,
1000
0100
0010
0001
0000
0000
1000
0000
0000
0100
0000
0000
,
0010
0001
0100
0010
,
1000
0001
0010
0001
,
0100
0001
0010
0100
,
0100
0000
0010
0001
1000
0001
0100
0010
,
1000
0001
0010
0100
1000
0010
0100
0001
,
0010
0001
0100
0010
1000
0100
0010
0001
,
0100
0010
1000
0100
0010
0001
0100
0010
,
0001
0010
1000
0000
0100
0000
0010
0000
,
0001
0100
0010
1000
,
0010
0000
0100
0000
,
0020
0000
0000
0000
,
0000
0000
0000
0000
,
0000
0000
0000
0000
,
0000
0000
0030
0000
1000
0000
0100
0010
,
0001
0000
0100
0010
1000
0000
0001
0010
,
0100
0000
1000
0001
0100
0000
0010
1000
,
0001
0000
0010
0001
0100
0000
0010
1000
,
0100
0000
1000
0001
0100
0010
0100
0010
,
1000
0010
1000
0010
0001
0010
0001
0010
,
1000
0100
0010
0001
0100
0010
1000
0001
,
0010
0001
0100
0010
2002
0000
3003
0000
,
0220
0330
1000
0100
,
0010
0000
0001
0000
0100
0001
0010
0000
,
0100
1000
0100
0000
,
1100
0000
0202
0000
,
0303
0000
1000
0100
,
0001
0100
1000
0010
,
0001
0010
1000
0000
,
1100
0101
0000
1001
,
0002
0000
0000
1003
0001
0010
0100
0000
0000
1000
0000
0000
,
0010
0000
0100
0001
1000
0000
0100
0000
,
0010
0001
0100
0000
,
0101
0000
2100
0001
,
3001
0000
1000
0000
,
1000
0001
0010
0001
,
0100
0010
1000
0100
,
0000
0001
0000
1001
,
0000
0000
0000
0000
1000
0100
0010
0000
,
0001
0100
0010
0000
1000
0001
0010
0000
,
0100
1000
0010
0000
0100
0001
0010
0000
,
0001
0100
0010
0000
0001
0010
1000
0000
,
0100
0010
0001
0000
1001
0000
0000
0000
,
1100
0000
0101
0000
,
0001
0010
0011
1100
,
0000
1001
0000
1001
,
0000
0000
1000
0100
,
0001
0010
1000
0100
,
0001
0010
0001
0100
,
1000
0010
0001
0100
,
1000
0000
0010
0000
1000
0000
0100
1001
,
1000
0000
1000
0100
0000
0100
0010
0000
0010
0001
0000
0001
,
0100
0000
0000
0000
0100
0000
0010
0000
0000
0000
0010
0000
1000
0000
0000
1001
0000
0000
0000
0000
0000
0000
0100
0000
,
1001
0000
1000
0001
0000
0001
0100
0000
0100
0010
0000
0010
,
1000
0000
1000
0100
0000
0100
0010
0000
1001
0000
0000
0010
,
1001
1100
0001
0101
,
0010
0000
0000
1100
0000
0000
0010
0000
0000
0101
0000
0001
,
1000
0000
0100
0010
0000
0001
0100
0000
0000
1001
0000
0000
,
0110
0000
1000
0001
0000
0100
0000
0000
2000
0000
0000
0000
,
3001
0000
0000
1000
0000
0100
0000
0000
0010
0000
0000
0000
,
1001
0000
0000
0000
0000
1001
0000
0000
2000
0000
0000
0000
,
3200
0000
0000
0000
0000
0300
0010
0000
0010
0001
0000
1001
,
0000
0000
1000
0100
0000
0100
0010
0000
0010
0001
0000
0001
,
0200
0000
0000
0000
0000
0000
0000
0000
0300
0020
0000
0000
0000
0000
0000
0000
0000
0000
2030
0000
0000
0000
0000
0000
,
3100
0000
0000
0010
0000
0001
0000
0000
1000
0100
0000
0100
,
0020
0000
0000
0032
0000
0000
2003
0000
,
3001
0000
0000
0010
0000
0100
0000
0000
1000
0001
0000
0001
,
0110
0000
0000
0101
0000
0000
1100
0000
,
1000
0000
0000
0001
0000
0000
0010
0000
1001
0000
0000
0000
,
2000
3200
0320
0032
,
0203
0320
0032
0023
,
2030
3200
0320
0032
,
0023
0032
0203
2300
,
3200
0000
0000
0320
0000
0000
2030
0000
,
3100
0000
0000
0010
0000
0001
0000
0000
1000
0001
0000
0100
,
2000
0000
0000
3200
0000
0000
0302
0003
,
0110
0000
1100
0000
0000
0101
0000
0000
1000
0100
0000
0100
,
0011
0000
0000
0110
0000
0000
1100
0000
,
2000
0000
0000
3200
0000
0000
0320
0000
0000
0031
0010
0100
,
1000
1100
0001
0101
,
1000
1010
0001
0011
,
0010
1100
0010
0101
,
0001
0000
1000
0100
0001
0100
1000
0010
,
0001
0010
1000
0100
0001
0100
1000
0010
,
0001
0010
1000
0100
0010
0001
0100
0010
,
1000
0100
1001
0000
1000
0100
0010
0000
,
0001
0100
0010
0100
1001
0000
1000
0001
,
1001
0000
0101
0000
0010
0001
1000
0000
,
0010
1000
0001
0010
0110
0000
1000
0010
,
0101
0000
0110
0000
0001
0010
0100
0000
,
1000
0010
0100
0010
1001
0000
0001
1000
,
1001
0000
1010
0000
1000
0000
0100
0010
,
0000
0001
0000
0100
0000
0010
1000
0100
,
0010
0001
0100
0010
0010
1000
0001
0000
,
0100
1000
0001
1000
0110
0000
0010
0100
,
0110
0000
1100
0000
0001
0100
0010
0000
,
0001
0010
0100
0001
1001
0000
0010
0001
,
1100
0000
1001
0000
0100
0001
1000
0000
,
0010
0001
1000
0001
0110
0000
0100
0010
,
0110
0000
0011
0000
0010
0000
1000
0001
,
0000
0100
0000
1000
0000
0001
0010
1000
,
0001
0100
1000
0001
1001
0000
1100
0000
,
0101
0011
1001
1000
,
0100
0010
0001
0100
,
0010
1000
0001
0010
,
0001
0100
1000
0100
,
0001
0000
0010
0000
0100
1000
1001
0000
,
0011
0101
1100
0110
,
0001
0000
0001
0000
1000
0100
0011
0000
,
0110
1001
1100
1010
,
1000
0001
1001
1000
,
0001
0010
0001
0100
,
0010
1000
0100
0010
,
0001
0100
0001
0010
,
0001
0000
0100
0000
1000
0100
0011
0000
,
0110
0101
1010
1001
,
0010
0000
0010
0000
1000
0001
0011
0000
,
0110
1001
1100
0011
,
1001
0000
1000
0100
0010
0001
0100
0000
,
0110
0000
0001
0010
0100
1000
0010
0000
,
0011
0000
0010
0001
0100
0010
1000
0000
,
1100
0000
0010
0001
0010
0100
1000
0000
,
1001
0000
0100
1000
0010
0100
0001
0000
,
0110
0000
1000
0001
0010
0100
1000
0000
,
1001
0000
0001
0100
0010
1000
0100
0000
,
1001
0000
1000
0100
0101
0000
1100
0000
,
1001
0000
0001
0010
0100
1000
0010
0000
,
0110
0000
1000
0100
0010
0001
0100
0000
,
1100
0000
0100
1000
0010
0100
0001
0000
,
0011
0000
0100
1000
0100
0010
0001
0000
,
1001
0000
0010
0001
0100
0010
1000
0000
,
0110
0000
0001
1000
0100
0010
0001
0000
,
1001
0000
1000
0010
0100
0001
1001
0000
,
1001
0000
1000
0100
0011
0000
1100
0000
,
1000
1001
1001
0001
,
1001
1001
1000
1001
,
1000
0001
0100
0010
1000
0000
0110
0000
,
1001
1000
0100
0010
,
1000
1100
0001
0101
,
0010
1010
0100
1100
,
0010
0101
0010
0110
,
1000
1100
0001
0101
,
0010
0110
1000
1001
,
0100
1100
0010
0101
,
0010
0011
0010
1010
,
1000
1100
0001
0101
,
0010
0110
0001
0101
,
0010
1010
0100
1001
,
0001
1000
0001
1001
,
1000
1100
0010
0011
,
0100
0101
1000
1010
,
1000
1100
0001
0011
,
0100
0101
0010
1001
,
1100
0101
0011
0101
,
1000
0000
0100
0010
0001
0000
0100
0010
,
0000
0100
0010
0000
1000
0001
1000
0001
,
1000
0100
0010
0001
0100
0010
1000
0001
,
0000
0001
0000
0001
1000
0100
0010
0000
,
0001
0000
0010
0100
1000
0000
0010
0100
,
0000
0010
0100
0000
0001
1000
0001
1000
,
0001
0010
0100
1000
0010
0100
0001
1000
,
0000
1000
0000
1000
0001
0010
0100
0000
,
0000
0100
0010
0001
,
0100
0010
0000
2200
,
3300
0000
0202
0000
0000
0000
0303
1000
,
0100
0000
0010
0001
0100
0000
0000
0101
,
0000
1000
0100
0010
,
0001
0100
0000
2002
,
3003
0000
0220
0000
0000
0000
0330
0001
,
1000
0000
1000
0100
0010
0001
0000
1001
,
0000
0010
0100
1000
,
0010
0100
0000
0022
,
0033
0000
2020
0000
0000
0000
3030
0001
,
0010
0000
0100
1000
0010
0000
0000
1010
,
0000
1100
0101
0011
,
0202
0000
0303
0000
1000
0000
0000
0100
,
0011
0000
1100
0000
0000
0000
1000
0100
,
0010
0100
1000
0000
1001
0000
0000
0000
,
1000
0100
0010
0001
0100
0010
1000
0010
,
0100
0001
0010
0001
0100
0010
1000
0100
,
0010
0001
0010
0100
1000
0010
0100
0001
,
0010
0001
0100
0010
1000
0100
0010
0001
,
1000
0010
0100
0001
0010
0001
1000
0100
,
0010
0001
0100
0010
1000
0100
0010
0001
,
0010
0100
1000
0010
0100
0001
0010
0100
,
1001
1100
0011
0101
,
1000
0000
0100
0000
0010
0001
0100
0010
,
0000
1000
0100
0000
0010
0001
0100
0010
,
1000
0100
0010
0000
0001
0100
0010
1000
,
0000
1000
0100
0000
0010
0001
0100
0010
,
0000
0010
0100
0000
1000
0000
0100
0010
,
0101
0011
1001
0000
,
1100
0011
0101
0000
,
1100
0000
0011
0000
0101
0000
0000
1000
,
0001
0000
0010
0000
0100
1000
0010
0100
,
0000
0001
0010
0000
0100
1000
0010
0100
,
0001
0010
0100
0000
1000
0010
0100
0001
,
0000
0001
0010
0000
0100
1000
0010
0100
,
0000
0100
0010
0000
0001
0000
0010
0100
,
1100
0001
0101
0010
,
0110
1000
1001
0010
,
1001
1100
0011
1000
,
0002
1000
0000
1000
,
2003
0100
0000
0100
,
3200
0010
0000
0010
,
0320
0001
0000
0001
,
2030
0001
0000
0001
,
0000
3001
0000
0001
,
1000
0001
0010
0100
0001
0100
0010
1000
,
0010
0000
1001
0000
,
1000
0100
0010
0001
0100
0010
1000
0000
,
0001
0010
0100
1000
0010
0100
0001
0000
,
0010
0001
0100
0010
1000
0100
0010
0000
,
0001
1000
0010
0100
0001
0010
0100
0000
,
1000
0001
0100
0010
1000
0100
0010
0000
,
0001
0100
0010
1000
0001
0010
0100
0000
,
1000
0100
0010
0001
0101
0000
1001
0000
,
1100
0000
1001
0000
0000
0000
1000
0100
,
1000
0100
0010
0001
0010
0001
0100
0001
,
0100
0000
0001
0000
1000
0000
0010
0000
1000
0000
0000
0000
1001
0101
0000
1100
,
0000
0010
0100
0000
0000
0000
0110
0000
2002
0000
0000
0000
0000
0000
0000
0000
0000
0000
0000
0000
0000
0000
0000
0000
,
0000
0000
0000
0000
0000
3003
0000
0000
;
